+ debrajewels.com »  :::: Dubbed Zone (Dubbed English in Hindi) » English Movies Dubbed in Hindi » High Resolution Movies
|- 300 Duology [2006 -2014] Blu-Ray 1080p x264 Dual Audio [Eng DTS +Hindi DTS & DD5 1]-Hon3y - 16 GB


TV and Appliances

300 Duology [2006 -2014] Blu-Ray 1080p x264 Dual Audio [Eng DTS +Hindi DTS & DD5 1]-Hon3y - 16 GB

0 Members and 1 Guest are viewing this topic.

March 24, 2017, 01:04:28 AM
  • Global Moderator
  • Legend Member
  • *****
  • Topic Author
  • Thank You: 10088
  • Reputation: 2082
  • Activity:
    100%
  • Country: in
  • Posts: 5241
  • Topics: 4324
  • Join Date: Jan 2014
  • ıllıllı ѕмoĸιng ιѕ good ғor нealтн ıllıllı :)










Format                                   : Matroska
Format version                           : Version 4 / Version 2
File size                                : 8.37 GiB
Duration                                 : 1 h 56 min
Overall bit rate                         : 10.3 Mb/s

Video
ID                                       : 1
Format                                   : AVC
Format/Info                              : Advanced Video Codec
Format profile                           : [email protected]
Format settings, CABAC                   : Yes
Format settings, ReFrames                : 5 frames
Codec ID                                 : V_MPEG4/ISO/AVC
Duration                                 : 1 h 56 min
Bit rate                                 : 8 000 kb/s
Width                                    : 1 920 pixels
Height                                   : 800 pixels
Display aspect ratio                     : 2.40:1
Frame rate mode                          : Constant
Frame rate                               : 23.976 (24000/1001) FPS
Color space                              : YUV
Chroma subsampling                       : 4:2:0
Bit depth                                : 8 bits
Scan type                                : Progressive
Bits/(Pixel*Frame)                       : 0.217
Stream size                              : 6.52 GiB (78%)
Title                                    : [email protected]
Writing library                          : x264 core
Default                                  : Yes
Forced                                   : No
Color range                              : Limited
Color primaries                          : BT.709
Transfer characteristics                 : BT.709
Matrix coefficients                      : BT.709

Audio #1
ID                                       : 2
Format                                   : DTS
Format/Info                              : Digital Theater Systems
Mode                                     : 16
Format settings, Endianness              : Big
Codec ID                                 : A_DTS
Duration                                 : 1 h 56 min
Bit rate mode                            : Constant
Bit rate                                 : 755 kb/s
Channel(s)                               : 6 channels
Channel positions                        : Front: L C R, Side: L R, LFE
Sampling rate                            : 48.0 kHz
Frame rate                               : 93.750 FPS (512 spf)
Bit depth                                : 24 bits
Compression mode                         : Lossy
Delay relative to video                  : 150 ms
Stream size                              : 630 MiB (7%)
Title                                    : [email protected]
Language                                 : Hindi
Default                                  : Yes
Forced                                   : No

Audio #2
ID                                       : 3
Format                                   : DTS
Format/Info                              : Digital Theater Systems
Mode                                     : 16
Format settings, Endianness              : Big
Codec ID                                 : A_DTS
Duration                                 : 1 h 56 min
Bit rate mode                            : Constant
Bit rate                                 : 1 509 kb/s
Channel(s)                               : 6 channels
Channel positions                        : Front: L C R, Side: L R, LFE
Sampling rate                            : 48.0 kHz
Frame rate                               : 93.750 FPS (512 spf)
Bit depth                                : 16 bits
Compression mode                         : Lossy
Stream size                              : 1.23 GiB (15%)
Title                                    : [email protected]
Language                                 : English
Default                                  : No
Forced                                   : No

Text
ID                                       : 4
Format                                   : PGS
Muxing mode                              : zlib
Codec ID                                 : S_HDMV/PGS
Codec ID/Info                            : Picture based subtitle format used on BDs/HD-DVDs
Duration                                 : 1 h 55 min
Bit rate                                 : 9 795 b/s
Count of elements                        : 2026
Stream size                              : 8.09 MiB (0%)
Title                                    : [email protected]
Language                                 : English
Default                                  : Yes
Forced                                   : No

Menu
00:00:00.000                             : en:00:00:00.000
00:05:16.983                             : en:00:05:16.983
00:10:23.289                             : en:00:10:23.289
00:13:16.796                             : en:00:13:16.796
00:16:52.178                             : en:00:16:52.178
00:19:44.350                             : en:00:19:44.350
00:22:28.347                             : en:00:22:28.347
00:27:03.622                             : en:00:27:03.622
00:29:16.254                             : en:00:29:16.254
00:33:17.829                             : en:00:33:17.829
00:35:06.771                             : en:00:35:06.771
00:37:49.434                             : en:00:37:49.434
00:40:46.277                             : en:00:40:46.277
00:44:10.314                             : en:00:44:10.314
00:49:17.288                             : en:00:49:17.288
00:52:46.330                             : en:00:52:46.330
00:55:33.664                             : en:00:55:33.664
01:01:40.864                             : en:01:01:40.864
01:05:20.750                             : en:01:05:20.750
01:08:42.952                             : en:01:08:42.952
01:12:43.192                             : en:01:12:43.192
01:15:50.379                             : en:01:15:50.379
01:18:38.380                             : en:01:18:38.380
01:22:20.936                             : en:01:22:20.936
01:26:43.532                             : en:01:26:43.532
01:29:11.513                             : en:01:29:11.513
01:33:59.217                             : en:01:33:59.217
01:38:54.595                             : en:01:38:54.595
01:43:26.200                             : en:01:43:26.200
01:49:03.537                             : en:01:49:03.537




Format                                   : Matroska
Format version                           : Version 4 / Version 2
File size                                : 7.87 GiB
Duration                                 : 1 h 42 min
Overall bit rate                         : 11.0 Mb/s

Video
ID                                       : 1
Format                                   : AVC
Format/Info                              : Advanced Video Codec
Format profile                           : [email protected]
Format settings, CABAC                   : Yes
Format settings, ReFrames                : 5 frames
Codec ID                                 : V_MPEG4/ISO/AVC
Duration                                 : 1 h 42 min
Bit rate                                 : 9 000 kb/s
Width                                    : 1 920 pixels
Height                                   : 800 pixels
Display aspect ratio                     : 2.40:1
Frame rate mode                          : Constant
Frame rate                               : 23.976 (24000/1001) FPS
Color space                              : YUV
Chroma subsampling                       : 4:2:0
Bit depth                                : 8 bits
Scan type                                : Progressive
Bits/(Pixel*Frame)                       : 0.244
Stream size                              : 6.45 GiB (82%)
Title                                    : [email protected]
Writing library                          : x264 core 142 r2431 ac76440
Default                                  : Yes
Forced                                   : No
Color range                              : Limited
Color primaries                          : BT.709
Transfer characteristics                 : BT.709
Matrix coefficients                      : BT.709

Audio #1
ID                                       : 2
Format                                   : AC-3
Format/Info                              : Audio Coding 3
Mode extension                           : CM (complete main)
Format settings, Endianness              : Big
Codec ID                                 : A_AC3
Duration                                 : 1 h 42 min
Bit rate mode                            : Constant
Bit rate                                 : 448 kb/s
Channel(s)                               : 6 channels
Channel positions                        : Front: L C R, Side: L R, LFE
Sampling rate                            : 48.0 kHz
Frame rate                               : 31.250 FPS (1536 spf)
Bit depth                                : 16 bits
Compression mode                         : Lossy
Stream size                              : 329 MiB (4%)
Title                                    : [email protected] Hindi DD5.1 BD
Language                                 : Hindi
Default                                  : No
Forced                                   : No

Audio #2
ID                                       : 3
Format                                   : DTS
Format/Info                              : Digital Theater Systems
Mode                                     : 16
Format settings, Endianness              : Big
Codec ID                                 : A_DTS
Duration                                 : 1 h 42 min
Bit rate mode                            : Constant
Bit rate                                 : 1 509 kb/s
Channel(s)                               : 6 channels
Channel positions                        : Front: L C R, Side: L R, LFE
Sampling rate                            : 48.0 kHz
Frame rate                               : 93.750 FPS (512 spf)
Bit depth                                : 24 bits
Compression mode                         : Lossy
Stream size                              : 1.08 GiB (14%)
Title                                    : [email protected] DTS
Language                                 : English
Default                                  : Yes
Forced                                   : No

Text
ID                                       : 4
Format                                   : PGS
Muxing mode                              : zlib
Codec ID                                 : S_HDMV/PGS
Codec ID/Info                            : Picture based subtitle format used on BDs/HD-DVDs
Duration                                 : 1 h 42 min
Bit rate                                 : 25.5 kb/s
Count of elements                        : 2012
Stream size                              : 18.6 MiB (0%)
Title                                    : [email protected]
Language                                 : English
Default                                  : Yes
Forced                                   : No

Menu
00:00:00.000                             : en:00:00:00.000
00:10:26.376                             : en:00:10:26.376
00:20:54.628                             : en:00:20:54.628
00:31:15.290                             : en:00:31:15.290
00:40:58.498                             : en:00:40:58.498
00:50:50.714                             : en:00:50:50.714
01:00:05.435                             : en:01:00:05.435
01:09:51.813                             : en:01:09:51.813
01:19:51.245                             : en:01:19:51.245
01:31:07.295                             : en:01:31:07.295
01:33:57.131                             : en:01:33:57.131




































Quote




Quote





Don't walk as you are king, walk as you don't care who the king is....!!
Never argue with an idiot. They drag you down to their level and then beat you with experience?

Share this topic on FacebookShare this topic on GoogleShare this topic on MySpaceShare this topic on TwitterShare this topic on Yahoo

« Last Edit: March 24, 2017, 01:06:07 AM by Rάήνίјάч1234 »



Don't walk as you are king, walk as you don't care who the king is....!!

Thanks given by:


March 24, 2017, 12:29:50 PM
Reply #1
  • Devoted Member
  • **
  • Thank You: 0
  • Reputation: 2
  • Activity:
    0.6%
  • Posts: 183
  • Topics: 0
  • Join Date: Jul 2012
  • ShareSpark Member

March 25, 2017, 11:51:25 AM
Reply #2
  • Conqueror
  • Hot Member
  • *****
  • Thank You: 98
  • Reputation: 45
  • Activity:
    0%
  • Country: in
  • Posts: 613
  • Topics: 346
  • Join Date: Jan 2016
  • ShareSpark Member
Add Google Drive For Both Parts Rάήνίјάч1234 bro.
 :thank: In Advance.

March 29, 2017, 07:41:50 AM
Reply #3
  • Hero Member
  • ***
  • Thank You: 77
  • Reputation: 6
  • Activity:
    0%
  • Country: in
  • Posts: 317
  • Topics: 142
  • Join Date: Dec 2016
  • ShareSpark Member

August 13, 2018, 11:14:26 AM
Reply #4
  • Semi Newbie
  • **
  • Thank You: 0
  • Reputation: 0
  • Activity:
    5.8%
  • Country: in
  • Posts: 32
  • Topics: 0
  • Join Date: Dec 2017
  • ShareSpark Member

August 26, 2018, 07:08:44 AM
Reply #5
  • Semi Newbie
  • **
  • Thank You: 0
  • Reputation: 0
  • Activity:
    1%
  • Posts: 5
  • Topics: 0
  • Join Date: Nov 2017
  • ShareSpark Member

September 18, 2018, 01:28:43 PM
Reply #6
  • Newbie
  • **
  • Thank You: 0
  • Reputation: 0
  • Activity:
    0.6%
  • Country: in
  • Posts: 3
  • Topics: 0
  • Join Date: Aug 2018
  • ShareSpark Member
Ranvijay sir... plz upload Google drive Link of this duology...Thank u so much for this quality uploads😃

October 18, 2018, 07:50:50 PM
Reply #7
  • Devoted Member
  • **
  • Thank You: 4
  • Reputation: 1
  • Activity:
    10.4%
  • Country: pk
  • Posts: 174
  • Topics: 7
  • Join Date: Mar 2013
  • ShareSpark Member
wow this is amazing release, would you please reupload?
all links are dead.
gdrive or mega would highly be appreciated.

 :rep: :bravo: :10on10:

Tags:
 

Related Topics





Back to top
Sitemap