+ debrajewels.com »  :::: Dubbed Zone (Dubbed English in Hindi) » English Movies Dubbed in Hindi
|- Avengers Infinity War (2018) BluRay 1080p x264 M.Audios [Hindi + Eng + Tamil + Telugu] ESub ~TMV~


Mastercard 10% Off

Avengers Infinity War (2018) BluRay 1080p x264 M.Audios [Hindi + Eng + Tamil + Telugu] ESub ~TMV~

0 Members and 1 Guest are viewing this topic.

August 17, 2018, 12:57:23 PM
  • Begginer
  • **
  • Topic Author
  • Thank You: 97
  • Reputation: 20
  • Activity:
    7.4%
  • Country: in
  • Posts: 89
  • Topics: 81
  • Join Date: Feb 2018
  • ShareSpark Member
Avengers: Infinity War 2018 BluRay 1080p x264 Original M.Audios [Telugu + Tamil + Hindi + Eng] - 2.8GB - ESub



Source :- TMV

Format                                   : Matroska
Format version                           : Version 4 / Version 2
File size                                : 2.79 GiB
Duration                                 : 2 h 29 min
Overall bit rate                         : 2 674 kb/s

Video
ID                                       : 1
Format                                   : AVC
Format/Info                              : Advanced Video Codec
Format profile                           : [email protected]
Format settings                          : CABAC / 4 Ref Frames
Format settings, CABAC                   : Yes
Format settings, ReFrames                : 4 frames
Codec ID                                 : V_MPEG4/ISO/AVC
Duration                                 : 2 h 29 min
Bit rate                                 : 2 150 kb/s
Width                                    : 1 920 pixels
Height                                   : 800 pixels
Display aspect ratio                     : 2.40:1
Frame rate mode                          : Constant
Frame rate                               : 23.976 (24000/1001) FPS
Color space                              : YUV
Chroma subsampling                       : 4:2:0
Bit depth                                : 8 bits
Scan type                                : Progressive
Bits/(Pixel*Frame)                       : 0.058
Stream size                              : 2.24 GiB (80%)
Writing library                          : x264 core 155
Default                                  : Yes
Forced                                   : Yes

Audio #1
ID                                       : 2
Format                                   : MPEG Audio
Format version                           : Version 1
Format profile                           : Layer 3
Format settings                          : Joint stereo
Codec ID                                 : A_MPEG/L3
Codec ID/Hint                            : MP3
Duration                                 : 2 h 29 min
Bit rate mode                            : Constant
Bit rate                                 : 128 kb/s
Channel(s)                               : 2 channels
Sampling rate                            : 48.0 kHz
Frame rate                               : 41.667 FPS (1152 SPF)
Compression mode                         : Lossy
Delay relative to video                  : -43 ms
Stream size                              : 137 MiB (5%)
Language                                 : Telugu
Default                                  : Yes
Forced                                   : Yes

Audio #2
ID                                       : 3
Format                                   : MPEG Audio
Format version                           : Version 1
Format profile                           : Layer 3
Format settings                          : Joint stereo / MS Stereo
Codec ID                                 : A_MPEG/L3
Codec ID/Hint                            : MP3
Duration                                 : 2 h 29 min
Bit rate mode                            : Constant
Bit rate                                 : 128 kb/s
Channel(s)                               : 2 channels
Sampling rate                            : 48.0 kHz
Frame rate                               : 41.667 FPS (1152 SPF)
Compression mode                         : Lossy
Delay relative to video                  : -43 ms
Stream size                              : 137 MiB (5%)
Language                                 : Tamil
Default                                  : No
Forced                                   : No

Audio #3
ID                                       : 4
Format                                   : MPEG Audio
Format version                           : Version 1
Format profile                           : Layer 3
Format settings                          : Joint stereo / MS Stereo
Codec ID                                 : A_MPEG/L3
Codec ID/Hint                            : MP3
Duration                                 : 2 h 29 min
Bit rate mode                            : Constant
Bit rate                                 : 128 kb/s
Channel(s)                               : 2 channels
Sampling rate                            : 48.0 kHz
Frame rate                               : 41.667 FPS (1152 SPF)
Compression mode                         : Lossy
Delay relative to video                  : -43 ms
Stream size                              : 137 MiB (5%)
Language                                 : Hindi
Default                                  : No
Forced                                   : No

Audio #4
ID                                       : 5
Format                                   : AAC
Format/Info                              : Advanced Audio Codec
Format profile                           : LC
Codec ID                                 : A_AAC-2
Duration                                 : 2 h 29 min
Bit rate                                 : 137 kb/s
Channel(s)                               : 2 channels
Channel positions                        : Front: L R
Sampling rate                            : 48.0 kHz
Frame rate                               : 46.875 FPS (1024 SPF)
Compression mode                         : Lossy
Delay relative to video                  : -43 ms
Stream size                              : 146 MiB (5%)
Language                                 : English
Default                                  : No
Forced                                   : No

Text
ID                                       : 6
Format                                   : UTF-8
Codec ID                                 : S_TEXT/UTF8
Codec ID/Info                            : UTF-8 Plain Text
Duration                                 : 2 h 28 min
Bit rate                                 : 42 b/s
Count of elements                        : 1724
Stream size                              : 46.5 KiB (0%)
Language                                 : English
Default                                  : Yes
Forced                                   : Yes





Share this topic on FacebookShare this topic on GoogleShare this topic on MySpaceShare this topic on TwitterShare this topic on Yahoo

« Last Edit: August 17, 2018, 01:45:24 PM by Katyayan »


Thanks given by:


October 14, 2018, 01:06:28 PM
Reply #1
  • Devoted Member
  • **
  • Thank You: 0
  • Reputation: 6
  • Activity:
    19.4%
  • Country: in
  • Posts: 111
  • Topics: 0
  • Join Date: Oct 2016
  • ShareSpark Member

Tags:
 

Related Topics





Back to top
Sitemap