+ debrajewels.com »  :::: Dubbed Zone (Dubbed English in Hindi) » English Movies Dubbed in Hindi
|- Avengers Infinity War (2018) 720p BluRay x264 Dual Audio [Hindi DD5.1 - English DD5.1] - Esub ~ Ranv


10% SBI and 10% Discount

Avengers Infinity War (2018) 720p BluRay x264 Dual Audio [Hindi DD5.1 - English DD5.1] - Esub ~ Ranv

0 Members and 1 Guest are viewing this topic.

August 18, 2018, 03:56:33 AM
  • Global Moderator
  • Legend Member
  • *****
  • Topic Author
  • Thank You: 10088
  • Reputation: 2082
  • Activity:
    100%
  • Country: in
  • Posts: 5241
  • Topics: 4324
  • Join Date: Jan 2014
  • ıllıllı ѕмoĸιng ιѕ good ғor нealтн ıllıllı :)






Avengers Infinity War (2018) 720p BluRay x264 Dual Audio [Hindi DD5.1 - English DD5.1] - Esub ~ Ranvijay

Hindi Audio Credit Goes To Hammer

Buy RDP Online




Quote
Format                                   : Matroska
Format version                           : Version 4 / Version 2
File size                                : 1.80 GiB
Duration                                 : 2 h 29 min
Overall bit rate                         : 1 725 kb/s
Movie name                               : Avengers Infinity War (2018) 720p BluRay x264 Dual Audio [Hindi DD5.1 - English DD5.1] - Esub ~ Ranvijay

Video
ID                                       : 1
Format                                   : AVC
Format/Info                              : Advanced Video Codec
Duration                                 : 2 h 29 min
Bit rate                                 : 1 500 kb/s
Width                                    : 1 280 pixels
Height                                   : 536 pixels
Display aspect ratio                     : 2.40:1
Frame rate mode                          : Constant
Frame rate                               : 23.976 (24000/1001) FPS
Original frame rate                      : 23.976 (23976/1000) FPS
Color space                              : YUV
Chroma subsampling                       : 4:2:0
Bit depth                                : 8 bits
Scan type                                : Progressive
Bits/(Pixel*Frame)                       : 0.091
Stream size                              : 1.56 GiB (87%)
Title                                    : ~Ranvijay~

Audio #1
ID                                       : 2
Format                                   : AC-3
Format/Info                              : Audio Coding 3
Codec ID                                 : A_AC3
Duration                                 : 2 h 29 min
Bit rate mode                            : Constant
Bit rate                                 : 448 kb/s
Channel(s)                               : 6 channels
Channel positions                        : Front: L C R, Side: L R, LFE
Sampling rate                            : 48.0 kHz
Frame rate                               : 31.250 FPS (1536 SPF)
Bit depth                                : 16 bits
Compression mode                         : Lossy
Stream size                              : 479 MiB (21%)
Title                                    : ~ Ranvijay~
Language                                 : Hindi
Service kind                             : Complete Main
Default                                  : Yes
Forced                                   : No

Audio #2
ID                                       : 2
Format                                   : AC-3
Format/Info                              : Audio Coding 3
Codec ID                                 : A_AC3
Duration                                 : 2 h 29 min
Bit rate mode                            : Constant
Bit rate                                 : 224 kb/s
Channel(s)                               : 6 channels
Channel positions                        : Front: L C R, Side: L R, LFE
Sampling rate                            : 48.0 kHz
Frame rate                               : 31.250 FPS (1536 SPF)
Bit depth                                : 16 bits
Compression mode                         : Lossy
Stream size                              : 239 MiB (13%)
Title                                    : ~Ranvijay~
Service kind                             : Complete Main
Default                                  : Yes
Forced                                   : No













:download:

Quote










File Leeched & Uploaded From




Don't walk as you are king, walk as you don't care who the king is....!!
Never argue with an idiot. They drag you down to their level and then beat you with experience?[/cente

Share this topic on FacebookShare this topic on GoogleShare this topic on MySpaceShare this topic on TwitterShare this topic on Yahoo

« Last Edit: October 01, 2018, 02:04:20 PM by Rάήνίјάч1234 »



Don't walk as you are king, walk as you don't care who the king is....!!

Thanks given by:


September 30, 2018, 04:45:58 PM
Reply #1
  • Elite Member
  • ***
  • Thank You: 0
  • Reputation: 0
  • Activity:
    1.8%
  • Posts: 460
  • Topics: 0
  • Join Date: Jul 2012
  • ShareSpark Member

October 01, 2018, 01:47:25 PM
Reply #2
  • Global Moderator
  • Legend Member
  • *****
  • Topic Author
  • Thank You: 10088
  • Reputation: 2082
  • Activity:
    100%
  • Country: in
  • Posts: 5241
  • Topics: 4324
  • Join Date: Jan 2014
  • ıllıllı ѕмoĸιng ιѕ good ғor нealтн ıllıllı :)

Don't walk as you are king, walk as you don't care who the king is....!!

October 01, 2018, 02:09:32 PM
Reply #3
  • Elite Member
  • ***
  • Thank You: 0
  • Reputation: 0
  • Activity:
    1.8%
  • Posts: 460
  • Topics: 0
  • Join Date: Jul 2012
  • ShareSpark Member

October 01, 2018, 02:09:53 PM
Reply #4
  • Elite Member
  • ***
  • Thank You: 0
  • Reputation: 0
  • Activity:
    1.8%
  • Posts: 460
  • Topics: 0
  • Join Date: Jul 2012
  • ShareSpark Member

October 03, 2018, 01:06:24 PM
Reply #5
  • Semi Newbie
  • **
  • Thank You: 0
  • Reputation: 0
  • Activity:
    1%
  • Country: in
  • Posts: 30
  • Topics: 0
  • Join Date: Jul 2014
  • ShareSpark Member

Tags:
 

Related Topics





Back to top
Sitemap