+ debrajewels.com »  :::: Dubbed Zone (Dubbed English in Hindi) » English Movies Dubbed in Hindi
|- Jurassic World Fallen Kingdon (2018) 720p BluRay x264 Dual Audio [Hindi DD5.1 - English DD5.1] - Msu


100% Recharge Offer

Jurassic World Fallen Kingdon (2018) 720p BluRay x264 Dual Audio [Hindi DD5.1 - English DD5.1] - Msu

0 Members and 1 Guest are viewing this topic.

September 29, 2018, 03:55:28 PM
  • Global Moderator
  • Legend Member
  • *****
  • Topic Author
  • Thank You: 10073
  • Reputation: 2078
  • Activity:
    100%
  • Country: in
  • Posts: 5234
  • Topics: 4319
  • Join Date: Jan 2014
  • ıllıllı ѕмoĸιng ιѕ good ғor нealтн ıllıllı :)






Jurassic World Fallen Kingdon (2018) 720p BluRay x264 Dual Audio [Hindi DD5.1 - English DD5.1] - Msubs ~ Ranvijay

Thanks To Invincible For Hindi Audio




Quote
General
Format                                   : Matroska
Format version                           : Version 4 / Version 2
File size                                : 1.32 GiB
Duration                                 : 2 h 8 min
Overall bit rate                         : 1 468 kb/s
Movie name                               : Jurassic World Fallen Kingdon (2018) 720p BluRay x264 Dual Audio [Hindi DD5.1 - English DD5.1] - Msubs ~ Ranvijay

Video
ID                                       : 1
Format                                   : AVC
Format/Info                              : Advanced Video Codec
Duration                                 : 2 h 8 min
Bit rate                                 : 1 000 kb/s
Width                                    : 1 280 pixels
Height                                   : 536 pixels
Display aspect ratio                     : 2.40:1
Frame rate mode                          : Constant
Frame rate                               : 23.976 (24000/1001) FPS
Color space                              : YUV
Chroma subsampling                       : 4:2:0
Bit depth                                : 8 bits
Scan type                                : Progressive
Bits/(Pixel*Frame)                       : 0.061
Stream size                              : 917 MiB (68%)
Title                                    : ~Ranvijay~

Audio #1
ID                                       : 2
Format                                   : AC-3
Format/Info                              : Audio Coding 3
Codec ID                                 : A_AC3
Duration                                 : 2 h 8 min
Bit rate mode                            : Constant
Bit rate                                 : 224 kb/s
Channel(s)                               : 6 channels
Channel positions                        : Front: L C R, Side: L R, LFE
Sampling rate                            : 48.0 kHz
Frame rate                               : 31.250 FPS (1536 SPF)
Bit depth                                : 16 bits
Compression mode                         : Lossy
Delay relative to video                  : -83 ms
Stream size                              : 206 MiB (15%)
Title                                    : ~Ranvijay~
Language                                 : Hindi
Service kind                             : Complete Main
Default                                  : Yes
Forced                                   : Yes

Audio #2
ID                                       : 3
Format                                   : AC-3
Format/Info                              : Audio Coding 3
Codec ID                                 : A_AC3
Duration                                 : 2 h 8 min
Bit rate mode                            : Constant
Bit rate                                 : 224 kb/s
Channel(s)                               : 6 channels
Channel positions                        : Front: L C R, Side: L R, LFE
Sampling rate                            : 48.0 kHz
Frame rate                               : 31.250 FPS (1536 SPF)
Bit depth                                : 16 bits
Compression mode                         : Lossy
Delay relative to video                  : -83 ms
Stream size                              : 206 MiB (15%)
Title                                    : ~Ranvijay~
Language                                 : English
Service kind                             : Complete Main
Default                                  : No
Forced                                   : No

Text #1
ID                                       : 4
Format                                   : PGS
Muxing mode                              : zlib
Codec ID                                 : S_HDMV/PGS
Codec ID/Info                            : Picture based subtitle format used on BDs/HD-DVDs
Duration                                 : 2 h 7 min
Bit rate                                 : 35.3 kb/s
Count of elements                        : 3541
Stream size                              : 32.1 MiB (2%)
Title                                    : ~Ranvijay~
Language                                 : English
Default                                  : Yes
Forced                                   : Yes

Text #2
ID                                       : 5
Format                                   : PGS
Muxing mode                              : zlib
Codec ID                                 : S_HDMV/PGS
Codec ID/Info                            : Picture based subtitle format used on BDs/HD-DVDs
Duration                                 : 2 h 6 min
Bit rate                                 : 20.3 kb/s
Count of elements                        : 2602
Stream size                              : 18.4 MiB (1%)
Title                                    : ~Ranvijay~
Language                                 : Hindi
Default                                  : No
Forced                                   : No


















:download:

Quote















File Leeched & Uploaded From




Don't walk as you are king, walk as you don't care who the king is....!!
Never argue with an idiot. They drag you down to their level and then beat you with experience?

Share this topic on FacebookShare this topic on GoogleShare this topic on MySpaceShare this topic on TwitterShare this topic on Yahoo

« Last Edit: September 29, 2018, 09:53:51 PM by Rάήνίјάч1234 »



Don't walk as you are king, walk as you don't care who the king is....!!

Thanks given by:


September 29, 2018, 07:23:49 PM
Reply #1
  • Elite Member
  • ***
  • Thank You: 0
  • Reputation: 0
  • Activity:
    1.8%
  • Posts: 460
  • Topics: 0
  • Join Date: Jul 2012
  • ShareSpark Member

September 30, 2018, 07:22:56 AM
Reply #2
  • Elite Forces
  • ****
  • Thank You: 231
  • Reputation: 99
  • Activity:
    8.8%
  • Country: sa
  • Posts: 1150
  • Topics: 116
  • Join Date: Jan 2017
  • ShareSpark Member

Tags:
 

Related Topics





Back to top
Sitemap