+ debrajewels.com »  :::: Dubbed Zone (Dubbed English in Hindi) » English Movies Dubbed in Hindi
|- Ant Man and the Wasp 2018 720p WEB-DL x264 Dual Audio [Hindi - English] ESub [MW]


10% SBI and 10% Discount

Ant Man and the Wasp 2018 720p WEB-DL x264 Dual Audio [Hindi - English] ESub [MW]

0 Members and 1 Guest are viewing this topic.

October 02, 2018, 02:01:28 PM
  • Legend Member
  • ****
  • Topic Author
  • Thank You: 1319
  • Reputation: 510
  • Activity:
    100%
  • Country: pk
  • Posts: 1570
  • Topics: 881
  • Join Date: Mar 2015
  • ShareSpark Member
Ant Man and the Wasp 2018 720p WEB-DL x264 Dual Audio [Hindi - English] ESub [MW]









General
Format : Matroska
Format version : Version 4 / Version 2
File size : 1.16 GiB
Duration : 1 h 58 min
Overall bit rate : 1 408 kb/s

Video
ID : 1
Format : AVC
Format/Info : Advanced Video Codec
Format profile : [email protected]
Format settings : CABAC / 5 Ref Frames
Format settings, CABAC : Yes
Format settings, RefFrames : 5 frames
Codec ID : V_MPEG4/ISO/AVC
Duration : 1 h 58 min
Bit rate : 1 200 kb/s
Width : 1 280 pixels
Height : 536 pixels
Display aspect ratio : 2.40:1
Frame rate mode : Constant
Frame rate : 23.976 (24000/1001) FPS
Color space : YUV
Chroma subsampling : 4:2:0
Bit depth : 8 bits
Scan type : Progressive
Bits/(Pixel*Frame) : 0.073
Stream size : 997 MiB (84%)
Writing library : x264 core 155 r2901 7d0ff22
Default : Yes
Forced : No

Audio #1
ID : 2
Format : AAC
Format/Info : Advanced Audio Codec
Format profile : LC
Codec ID : A_AAC-2
Duration : 1 h 58 min
Bit rate : 128 kb/s
Channel(s) : 2 channels
Channel positions : Front: L R
Sampling rate : 48.0 kHz
Frame rate : 46.875 FPS (1024 SPF)
Compression mode : Lossy
Stream size : 108 MiB (9%)
Language : Hindi
Default : Yes
Forced : No

Audio #2
ID : 3
Format : AAC
Format/Info : Advanced Audio Codec
Format profile : LC
Codec ID : A_AAC-2
Duration : 1 h 58 min
Bit rate : 96.0 kb/s
Channel(s) : 2 channels
Channel positions : Front: L R
Sampling rate : 48.0 kHz
Frame rate : 46.875 FPS (1024 SPF)
Compression mode : Lossy
Stream size : 81.1 MiB (7%)
Language : English
Default : No
Forced : No

Text
ID : 4
Format : UTF-8
Codec ID : S_TEXT/UTF8
Codec ID/Info : UTF-8 Plain Text
Duration : 1 h 50 min
Bit rate : 64 b/s
Count of elements : 1930
Stream size : 52.2 KiB (0%)
Language : English
Default : Yes
Forced : No




 :ss:














 :download:


























Share this topic on FacebookShare this topic on GoogleShare this topic on MySpaceShare this topic on TwitterShare this topic on Yahoo



Thanks given by:


October 02, 2018, 02:25:20 PM
Reply #1
  • Elite Member
  • ***
  • Thank You: 0
  • Reputation: 0
  • Activity:
    1.8%
  • Posts: 460
  • Topics: 0
  • Join Date: Jul 2012
  • ShareSpark Member

October 02, 2018, 05:19:55 PM
Reply #2
  • Newbie
  • **
  • Thank You: 0
  • Reputation: 0
  • Activity:
    0.6%
  • Country: fr
  • Posts: 2
  • Topics: 0
  • Join Date: Aug 2017
  • ShareSpark Member

Tags:
 

Related Topics





Back to top
Sitemap