+ debrajewels.com »  :::: Dubbed Zone (Dubbed English in Hindi) » English Movies Dubbed in Hindi
|- Monsters - Dark Continent 2014 x264 720p Esub BluRay Dual Audio English Hindi GOPISAHI


Samsung Galaxy 8

Monsters - Dark Continent 2014 x264 720p Esub BluRay Dual Audio English Hindi GOPISAHI

0 Members and 1 Guest are viewing this topic.

October 03, 2018, 04:32:36 PM
  • Legend Member
  • ****
  • Topic Author
  • Thank You: 1319
  • Reputation: 510
  • Activity:
    100%
  • Country: pk
  • Posts: 1570
  • Topics: 881
  • Join Date: Mar 2015
  • ShareSpark Member
Monsters - Dark Continent 2014 x264 720p Esub BluRay Dual Audio English Hindi GOPISAHI







Format : Matroska

Format version : Version 4 / Version 2

File size : 846 MiB

Duration : 1 h 59 min

Overall bit rate : 994 kb/s

Movie name : Monsters - Dark Continent 2014 GOPISAHI


Video

Format : AVC

Format/Info : Advanced Video Codec

Codec ID : V_MPEG4/ISO/AVC

Duration : 1 h 59 min

Bit rate : 799 kb/s

Width : 1 280 pixels

Height : 536 pixels

Display aspect ratio : 2.40:1

Frame rate mode : Constant

Frame rate : 23.976 (24000/1001) FPS

Color space : YUV

Chroma subsampling : 4:2:0

Bit depth : 8 bits

Scan type : Progressive

Bits/(Pixel*Frame) : 0.049

Stream size : 680 MiB (80%)

Title : GOPISAHI

Writing library : x264 core 155 r2901 7d0ff22


Audio #1

Format : AAC

Format/Info : Advanced Audio Codec

Duration : 1 h 59 min

Bit rate : 96.0 kb/s

Channel(s) : 2 channels

Channel positions : Front: L R

Sampling rate : 48.0 kHz

Frame rate : 46.875 FPS (1024 SPF)

Compression mode : Lossy

Delay relative to video : -21 ms

Stream size : 81.8 MiB (10%)

Title : GOPISAHI

Language : Hindi

Default : Yes

Forced : No


Audio #2

ID : 3

Format : AAC

Format/Info : Advanced Audio Codec

Format profile : LC

Codec ID : A_AAC-2

Duration : 1 h 59 min

Bit rate : 96.0 kb/s

Channel(s) : 2 channels

Channel positions : Front: L R

Sampling rate : 48.0 kHz

Frame rate : 46.875 FPS (1024 SPF)

Compression mode : Lossy

Delay relative to video : -21 ms

Stream size : 81.8 MiB (10%)

Title : GOPISAHI

Language : English

Default : No

Forced : No


Text

Language : English






 :ss:










 :download:

























Share this topic on FacebookShare this topic on GoogleShare this topic on MySpaceShare this topic on TwitterShare this topic on Yahoo




October 04, 2018, 03:26:30 AM
Reply #1
  • Devoted Member
  • **
  • Thank You: 0
  • Reputation: 0
  • Activity:
    1.6%
  • Country: pk
  • Posts: 120
  • Topics: 0
  • Join Date: Apr 2014
  • ShareSpark Member

Tags:
 

Related Topics





Back to top
Sitemap