+ debrajewels.com »  :::: Dubbed Zone (Dubbed English in Hindi) » English Movies Dubbed in Hindi
|- Titanic 1997 x264 720p BluRay Dual Audio English Hindi GOPISAHI


Amazon Pantry Offer

Titanic 1997 x264 720p BluRay Dual Audio English Hindi GOPISAHI

0 Members and 1 Guest are viewing this topic.

October 03, 2018, 05:42:41 PM
  • Legend Member
  • ****
  • Topic Author
  • Thank You: 1319
  • Reputation: 510
  • Activity:
    100%
  • Country: pk
  • Posts: 1570
  • Topics: 881
  • Join Date: Mar 2015
  • ShareSpark Member
Titanic 1997 x264 720p BluRay Dual Audio English Hindi GOPISAHI









Format : Matroska
Format version : Version 4 / Version 2
File size : 1.08 GiB
Duration : 3 h 14 min
Overall bit rate : 794 kb/s
Movie name : Titanic 1997 GOPISAHI

Video
Format : AVC
Format/Info : Advanced Video Codec
Codec ID : V_MPEG4/ISO/AVC
Duration : 3 h 14 min
Bit rate : 599 kb/s
Width : 1 280 pixels
Height : 546 pixels
Display aspect ratio : 2.35:1
Frame rate mode : Constant
Frame rate : 23.976 (24000/1001) FPS
Color space : YUV
Chroma subsampling : 4:2:0
Bit depth : 8 bits
Scan type : Progressive
Bits/(Pixel*Frame) : 0.036
Stream size : 834 MiB (75%)
Title : GOPISAHI
Writing library : x264 core 155 r2901 7d0ff22
Language : English

Audio #1
Format : AAC
Duration : 3 h 14 min
Bit rate : 96.0 kb/s
Channel(s) : 2 channels
Channel positions : Front: L R
Sampling rate : 48.0 kHz
Frame rate : 46.875 FPS (1024 SPF)
Compression mode : Lossy
Delay relative to video : -21 ms
Stream size : 134 MiB (12%)
Title : GOPISAHI
Language : Hindi

Audio #2
Format : AAC
Duration : 3 h 14 min
Bit rate : 96.0 kb/s
Channel(s) : 2 channels
Channel positions : Front: L R
Sampling rate : 48.0 kHz
Frame rate : 46.875 FPS (1024 SPF)
Compression mode : Lossy
Delay relative to video : -21 ms
Stream size : 134 MiB (12%)
Title : GOPISAHI
Language : English

Menu
00:00:00.000 : en:Chapter 1
00:01:24.418 : en:Chapter 2
00:04:39.988 : en:Chapter 3
00:08:26.214 : en:Chapter 4
00:10:46.771 : en:Chapter 5
00:12:52.772 : en:Chapter 6
00:16:52.428 : en:Chapter 7
00:20:07.748 : en:Chapter 8
00:23:38.959 : en:Chapter 9
00:26:26.585 : en:Chapter 10
00:29:03.533 : en:Chapter 11
00:29:37.526 : en:Chapter 12
00:35:00.056 : en:Chapter 13
00:36:48.623 : en:Chapter 14
00:42:59.160 : en:Chapter 15
00:45:26.098 : en:Chapter 16
00:47:11.704 : en:Chapter 17
00:53:33.210 : en:Chapter 18
00:56:48.071 : en:Chapter 19
01:05:32.095 : en:Chapter 20
01:10:20.133 : en:Chapter 21
01:14:06.525 : en:Chapter 22
01:16:10.691 : en:Chapter 23
01:19:59.086 : en:Chapter 24
01:22:50.674 : en:Chapter 25
01:23:40.057 : en:Chapter 26
01:28:21.671 : en:Chapter 27
01:29:19.855 : en:Chapter 28
01:32:52.317 : en:Chapter 29
01:36:59.188 : en:Chapter 30
01:44:41.150 : en:Chapter 31
01:46:21.041 : en:Chapter 32
01:47:58.847 : en:Chapter 33
01:50:11.105 : en:Chapter 34
01:52:21.443 : en:Chapter 35
01:53:54.328 : en:Chapter 36
01:55:21.915 : en:Chapter 37
01:56:10.922 : en:Chapter 38
01:57:53.275 : en:Chapter 39
02:06:38.341 : en:Chapter 40
02:08:50.139 : en:Chapter 41
02:11:22.083 : en:Chapter 42
02:15:42.635 : en:Chapter 43
02:19:43.458 : en:Chapter 44
02:21:24.685 : en:Chapter 45
02:25:28.887 : en:Chapter 46
02:27:28.590 : en:Chapter 47
02:29:07.439 : en:Chapter 48
02:29:56.738 : en:Chapter 49
02:33:31.536 : en:Chapter 50
02:36:52.361 : en:Chapter 51
02:38:33.963 : en:Chapter 52
02:40:34.667 : en:Chapter 53
02:45:00.641 : en:Chapter 54
02:47:48.976 : en:Chapter 55
02:49:22.653 : en:Chapter 56
02:52:09.778 : en:Chapter 57
02:53:41.494 : en:Chapter 58
02:57:53.496 : en:Chapter 59
02:59:35.473 : en:Chapter 60
03:01:29.253 : en:Chapter 61
03:03:13.774 : en:Chapter 62
03:04:58.129 : en:Chapter 63
03:07:19.645 : en:Chapter 64




 :ss:









 :download:
























Share this topic on FacebookShare this topic on GoogleShare this topic on MySpaceShare this topic on TwitterShare this topic on Yahoo



Thanks given by:


Tags:
 

Related Topics





Back to top
Sitemap