+ debrajewels.com »  :::: Dubbed Zone (Dubbed English in Hindi) » English Movies Dubbed in Hindi
|- The Five Year Engagement 2012 x264 x264 720p Esub BluRay Dual Audio English Hindi GOPISAHI


10% SBI and 10% Discount

The Five Year Engagement 2012 x264 x264 720p Esub BluRay Dual Audio English Hindi GOPISAHI

0 Members and 1 Guest are viewing this topic.

October 04, 2018, 01:59:50 PM
  • Legend Member
  • ****
  • Topic Author
  • Thank You: 1319
  • Reputation: 510
  • Activity:
    100%
  • Country: pk
  • Posts: 1570
  • Topics: 881
  • Join Date: Mar 2015
  • ShareSpark Member
The Five Year Engagement 2012 x264 x264 720p Esub BluRay Dual Audio English Hindi GOPISAHI









Format : Matroska

Format version : Version 4 / Version 2

File size : 943 MiB

Duration : 2 h 11 min

Overall bit rate : 1 005 kb/s

Movie name : The Five Year Engagement 2012 GOPISAHI


Video

Format : AVC

Format/Info : Advanced Video Codec

Codec ID : V_MPEG4/ISO/AVC

Duration : 2 h 11 min

Bit rate : 809 kb/s

Width : 1 280 pixels

Height : 688 pixels

Display aspect ratio : 1.85:1

Frame rate mode : Constant

Frame rate : 23.976 (24000/1001) FPS

Color space : YUV

Chroma subsampling : 4:2:0

Bit depth : 8 bits

Scan type : Progressive

Bits/(Pixel*Frame) : 0.038

Stream size : 760 MiB (81%)

Title : GOPISAHI

Writing library : x264 core 125 r2200 999b753


Audio #1

Format : AAC

Duration : 2 h 11 min

Bit rate : 96.0 kb/s

Channel(s) : 2 channels

Channel positions : Front: L R

Sampling rate : 48.0 kHz

Frame rate : 46.875 FPS (1024 SPF)

Compression mode : Lossy

Delay relative to video : -83 ms

Stream size : 90.4 MiB (10%)

Title : GOPISAHI

Language : Hindi


Audio #2

Format : AAC

Duration : 2 h 11 min

Bit rate : 96.0 kb/s

Channel(s) : 2 channels

Channel positions : Front: L R

Sampling rate : 48.0 kHz

Frame rate : 46.875 FPS (1024 SPF)

Compression mode : Lossy

Delay relative to video : -83 ms

Stream size : 90.4 MiB (10%)

Title : GOPISAHI

Language : English


Text

Language : English





 :ss:









 :download:


























Share this topic on FacebookShare this topic on GoogleShare this topic on MySpaceShare this topic on TwitterShare this topic on Yahoo




Tags:
 

Related Topics





Back to top
Sitemap