+ debrajewels.com »  :::: Dubbed Zone (Dubbed English in Hindi) » English Movies Dubbed in Hindi
|- Johnny English Reborn 2011 720p BluRay x264 Dual Audio [Hindi DTS 5.1 - English 2.0] ESub [MW]


TV and Appliances

Johnny English Reborn 2011 720p BluRay x264 Dual Audio [Hindi DTS 5.1 - English 2.0] ESub [MW]

0 Members and 1 Guest are viewing this topic.

October 04, 2018, 02:39:41 PM
  • Legend Member
  • ****
  • Topic Author
  • Thank You: 1319
  • Reputation: 510
  • Activity:
    100%
  • Country: pk
  • Posts: 1570
  • Topics: 881
  • Join Date: Mar 2015
  • ShareSpark Member
Johnny English Reborn 2011 720p BluRay x264 Dual Audio [Hindi DTS 5.1 - English 2.0] ESub [MW]










General
Format : Matroska
Format version : Version 4 / Version 2
File size : 1.68 GiB
Duration : 1 h 41 min
Overall bit rate : 2 367 kb/s

Video
ID : 1
Format : AVC
Format/Info : Advanced Video Codec
Format profile : [email protected]
Format settings : CABAC / 4 Ref Frames
Format settings, CABAC : Yes
Format settings, RefFrames : 4 frames
Codec ID : V_MPEG4/ISO/AVC
Duration : 1 h 41 min
Bit rate : 1 500 kb/s
Width : 1 280 pixels
Height : 534 pixels
Display aspect ratio : 2.40:1
Original display aspect ratio : 2.40:1
Frame rate mode : Constant
Frame rate : 23.976 (23976/1000) FPS
Color space : YUV
Chroma subsampling : 4:2:0
Bit depth : 8 bits
Scan type : Progressive
Bits/(Pixel*Frame) : 0.092
Stream size : 1.06 GiB (63%)
Writing library : x264 core 152 r2851M ba24899
Default : Yes
Forced : No

Audio #1
ID : 2
Format : DTS
Format/Info : Digital Theater Systems
Codec ID : A_DTS
Duration : 1 h 41 min
Bit rate mode : Constant
Bit rate : 768 kb/s
Channel(s) : 6 channels
Channel positions : Front: L C R, Side: L R, LFE
Sampling rate : 48.0 kHz
Frame rate : 93.750 FPS (512 SPF)
Bit depth : 24 bits
Compression mode : Lossy
Stream size : 557 MiB (32%)
Language : Hindi
Default : Yes
Forced : No

Audio #2
ID : 3
Format : AAC
Format/Info : Advanced Audio Codec
Format profile : LC
Codec ID : A_AAC-2
Duration : 1 h 41 min
Bit rate : 96.0 kb/s
Channel(s) : 2 channels
Channel positions : Front: L R
Sampling rate : 48.0 kHz
Frame rate : 46.875 FPS (1024 SPF)
Compression mode : Lossy
Stream size : 69.6 MiB (4%)
Language : English
Default : No
Forced : No

Text
ID : 4
Format : UTF-8
Codec ID : S_TEXT/UTF8
Codec ID/Info : UTF-8 Plain Text
Duration : 1 h 38 min
Bit rate : 43 b/s
Count of elements : 1034
Stream size : 31.6 KiB (0%)
Default : Yes
Forced : No




 :ss:













 :download:

























Share this topic on FacebookShare this topic on GoogleShare this topic on MySpaceShare this topic on TwitterShare this topic on Yahoo




October 06, 2018, 01:27:53 AM
Reply #1
  • Special Member
  • ****
  • Thank You: 1
  • Reputation: 1
  • Activity:
    4.4%
  • Posts: 847
  • Topics: 2
  • Join Date: Apr 2012
  • ShareSpark Member

Tags:
 

Related Topics





Back to top
Sitemap