+ debrajewels.com »  :::: Bollywood Zone » Bollywood Movies (Original Rips) » High Resolution Movies
|- Soorma (2018) Hindi Movie - HDRip [Mp4 - AAC3(5.1Ch)] - 849 MB


10% SBI and 10% Discount

Soorma (2018) Hindi Movie - HDRip [Mp4 - AAC3(5.1Ch)] - 849 MB

0 Members and 1 Guest are viewing this topic.

October 20, 2018, 04:55:09 PM
  • Semi Newbie
  • **
  • Topic Author
  • Thank You: 0
  • Reputation: -1
  • Activity:
    6.2%
  • Country: bd
  • Posts: 31
  • Topics: 31
  • Join Date: Oct 2018
  • ShareSpark Member
      Soorma (2018) Hindi Movie - HDRip
[Mp4 - AAC3(5.1Ch)] - 849 MB   
 





Code: [Select]
General
Format                                   : Matroska
Format version                           : Version 4
File size                                : 849 MiB
Duration                                 : 2 h 32 min

Video
ID                                       : 1
Format                                   : AVC
Format/Info                              : Advanced Video Codec
Format profile                           : [email protected]
Format settings                          : CABAC / 4 Ref Frames
Format settings, CABAC                   : Yes
Format settings, RefFrames               : 4 frames
Codec ID                                 : V_MPEG4/ISO/AVC
Duration                                 : 2 h 32 min
Bit rate                                 : 650 kb/s
Width                                    : 640 pixels
Height                                   : 272 pixels
Display aspect ratio                     : 2.35:1
Frame rate mode                          : Constant
Frame rate                               : 25.000 FPS
Color space                              : YUV
Chroma subsampling                       : 4:2:0
Bit depth                                : 8 bits
Scan type                                : Progressive
Bits/(Pixel*Frame)                       : 0.149
Stream size                              : 708 MiB (83%)

Audio
ID                                       : 2
Format                                   : AAC LC SBR
Commercial name                          : HE-AAC
Format settings                          : Explicit
Codec ID                                 : A_AAC-2
Duration                                 : 2 h 32 min
Bit rate                                 : 128 kb/s
Channel(s)                               : 6 channels
Channel layout                           : C L R Ls Rs LFE
Sampling rate                            : 48.0 kHz
Stream size                              : 139 MiB (16%)



  Thumbnail   





OR

OR

Share this topic on FacebookShare this topic on GoogleShare this topic on MySpaceShare this topic on TwitterShare this topic on Yahoo




Tags:
 

Related Topics

  Subject / Started by Replies Last post
0 Replies
137 Views
Last post October 08, 2018, 02:25:58 PM
by BUNGILI
0 Replies
289 Views
Last post October 11, 2018, 10:08:06 AM
by BUNGILI
0 Replies
218 Views
Last post October 12, 2018, 05:44:32 PM
by BUNGILI
0 Replies
58 Views
Last post October 20, 2018, 04:16:50 PM
by BUNGILI
0 Replies
65 Views
Last post October 20, 2018, 05:23:57 PM
by BUNGILI




Back to top
Sitemap