+ debrajewels.com »  :::: Bollywood Zone » Bollywood Movies (Original Rips) » High Resolution Movies
|- NAWABZAADE 2018 1080P WEB DL AAC 10.4 GB (Saturnweb)


100% Recharge Offer

NAWABZAADE 2018 1080P WEB DL AAC 10.4 GB (Saturnweb)

0 Members and 1 Guest are viewing this topic.

October 21, 2018, 07:43:35 AM
  • Newbie
  • **
  • Topic Author
  • Thank You: 0
  • Reputation: -1
  • Activity:
    0.6%
  • Country: in
  • Posts: 3
  • Topics: 2
  • Join Date: Oct 2018
  • ShareSpark Member
NAWABZAADE 2018 1080P  WEB DL AAC 10.4 GB (Saturnweb)

 :info:
General

Format                           : Matroska
File size                        : 10.5 GiB
Duration                         : 1h 49mn
Overall bit rate                 : 13.7 Mbps
Writing application              : Lavf57.71.100
Writing library                  : Lavf57.71.100

Video
ID                               : 1
Format                           : MPEG-4 Visual
Format profile                   : [email protected]
Format settings, BVOP            : No
Format settings, QPel            : No
Format settings, GMC             : No warppoints
Format settings, Matrix          : Default (H.263)
Codec ID                         : V_MPEG4/ISO/ASP
Codec ID/Info                    : Advanced Simple Profile
Duration                         : 1h 49mn
Bit rate                         : 13.3 Mbps
Width                            : 1 920 pixels
Height                           : 800 pixels
Display aspect ratio             : 2.40:1
Frame rate                       : 25.000 fps
Color space                      : YUV
Chroma subsampling               : 4:2:0
Bit depth                        : 8 bits
Scan type                        : Progressive
Compression mode                 : Lossy
Bits/(Pixel*Frame)               : 0.346
Stream size                      : 10.2 GiB (97%)
Writing library                  : Lavc57.89.100
Language                         : English

Audio
ID                               : 2
Format                           : MPEG Audio
Format version                   : Version 1
Format profile                   : Layer 3
Codec ID                         : A_MPEG/L3
Codec ID/Hint                    : MP3
Duration                         : 1h 49mn
Bit rate mode                    : Constant
Bit rate                         : 128 Kbps
Channel(s)                       : 2 channels
Sampling rate                    : 48.0 KHz
Compression mode                 : Lossy
Stream size                      : 100 MiB (1%)
Writing library                  : LAME3.98
Language                         : English

 :ss:
[/url]
[/img]
 :download:


Share this topic on FacebookShare this topic on GoogleShare this topic on MySpaceShare this topic on TwitterShare this topic on Yahoo




Tags:
 

Related Topics

  Subject / Started by Replies Last post
0 Replies
418 Views
Last post August 03, 2018, 12:33:05 PM
by shahzaibjaan
0 Replies
581 Views
Last post August 06, 2018, 12:43:31 PM
by RoBi007
2 Replies
696 Views
Last post September 23, 2018, 10:41:42 PM
by JohnMallory
1 Replies
866 Views
Last post September 24, 2018, 07:00:12 AM
by Vagabond
0 Replies
433 Views
Last post September 25, 2018, 02:27:14 PM
by shahzaibjaan




Back to top
Sitemap