+ debrajewels.com »  :::: Dubbed Zone (Dubbed English in Hindi) » English Movies Dubbed in Hindi » Animation Movies
|- Barbie Mariposa And The Fairy Princess (2013)720p BDRip[Hindi-Eng-Tamil]


HDFC 10% Off

Barbie Mariposa And The Fairy Princess (2013)720p BDRip[Hindi-Eng-Tamil]

0 Members and 2 Guests are viewing this topic.

September 09, 2013, 11:08:52 PM
  • Elite Mod (Inactive)
  • Legend Member
  • ****
  • Topic Author
  • Thank You: 742
  • Reputation: 561
  • Activity:
    0%
  • Country: pk
  • Posts: 1544
  • Topics: 520
  • Join Date: Mar 2012
  • ShareSpark Member


ORG DVD 224Kbps HINDI-TAMIL AUDIO
 :info:
Video
ID : 1
Format : AVC
Muxing mode : Header stripping
Duration : 1h 19mn
Width : 1 280 pixels
Height : 720 pixels
Display aspect ratio : 16:9
Frame rate : 23.976 fps
Chroma subsampling : 4:2:0
Scan type : Progressive

audio2.png

Audio #1
ID : 2
Format : AAC
Format/Info : Advanced Audio Codec
Format profile : HE-AAC / LC
Codec ID : A_AAC
Duration : 1h 19mn
Channel(s) : 2 channels
Channel positions : Front: L R
Sampling rate : 48.0 KHz / 24.0 KHz
Compression mode : Lossy
Language : English

Audio #2
ID : 3
Format : AC-3
Format/Info : Audio Coding 3
Mode extension : CM (complete main)
Muxing mode : Header stripping
Codec ID : A_AC3
Duration : 1h 19mn
Bit rate mode : Constant
Bit rate : 224 Kbps
Channel(s) : 2 channels
Channel positions : Front: L R
Sampling rate : 48.0 KHz
Bit depth : 16 bits
Compression mode : Lossy
Delay relative to video : 1s 300ms
Stream size : 127 MiB (15%)
Language : Hindi

Audio #3
ID : 4
Format : AC-3
Format/Info : Audio Coding 3
Mode extension : CM (complete main)
Muxing mode : Header stripping
Codec ID : A_AC3
Duration : 1h 19mn
Bit rate mode : Constant
Bit rate : 224 Kbps
Channel(s) : 2 channels
Channel positions : Front: L R
Sampling rate : 48.0 KHz
Bit depth : 16 bits
Compression mode : Lossy
Delay relative to video : 1s 300ms
Stream size : 127 MiB (15%)
Language : Tamil
 :ss:



:download:

OR

OR

OR

OR

OR

OR

OR

OR



SAMPLE ONLY

Share this topic on FacebookShare this topic on GoogleShare this topic on MySpaceShare this topic on TwitterShare this topic on Yahoo

« Last Edit: September 09, 2013, 11:44:10 PM by Zohaib Ch »


Thanks given by:


September 10, 2013, 12:23:59 AM
Reply #1
  • Head Admin
  • Legend Member
  • *****
  • Thank You: 1252
  • Reputation: 892
  • Activity:
    0%
  • Country: in
  • Posts: 4359
  • Topics: 1701
  • Join Date: Dec 2010

September 28, 2018, 06:19:28 AM
Reply #2
  • Semi Newbie
  • **
  • Thank You: 0
  • Reputation: 0
  • Activity:
    2%
  • Country: us
  • Posts: 10
  • Topics: 0
  • Join Date: May 2018
  • ShareSpark Member
Please Upload Barbie Mariposa and fairy princess 2013 Hindi audio 5.1ch

September 28, 2018, 11:50:11 AM
Reply #3
  • Semi Newbie
  • **
  • Thank You: 0
  • Reputation: 0
  • Activity:
    0.8%
  • Posts: 16
  • Topics: 0
  • Join Date: Dec 2012
  • ShareSpark Member
There is no working link, please check and re-upload.

Thanks

October 08, 2018, 02:42:01 PM
Reply #4
  • Semi Newbie
  • **
  • Thank You: 0
  • Reputation: 0
  • Activity:
    2%
  • Country: us
  • Posts: 10
  • Topics: 0
  • Join Date: May 2018
  • ShareSpark Member
Barbie Mariposa And The Fairy Princess  Hindi Audio only
Please upload.....

Tags:
 

Related Topics





Back to top
Sitemap